ConCen
FLVn??? - Printable Version

+- ConCen (https://concen.org/oldforum)
+-- Forum: Uploads, Downloads and other Resources (https://concen.org/oldforum/forum-3.html)
+--- Forum: Media Tools and Tactics (https://concen.org/oldforum/forum-46.html)
+--- Thread: FLVn??? (/thread-33647.html)



FLVn??? - Dunamis - 06-28-2010

Having big problems playing these files. VLC splits it up and fades the colour. KMPlayer just plays sound. Media Player Classic plays the sound at full speed, but the video lags WAY behind and jumps.

Can anyone help?


RE: FLVn??? - yeti - 06-29-2010

What are FLVn files?


RE: FLVn??? - Dunamis - 07-01-2010

They show up as FLVn in the KMPlayer.
C.I.A., E.U. Corruption, and The Nazi's, The - Christopher Story [FLVn]\The C.I.A., E.U. Corruption, and The Nazi's - Christopher Story (Full Version).flv
Format : Flash Video
File size : 105 MiB
Duration : 26mn 55s
Overall bit rate : 548 Kbps
Video
Format : VP6
Duration : 26mn 55s
Bit rate : 400 Kbps
Width : 1 024 pixels
Height : 576 pixels
Display aspect ratio : 16:9
Frame rate : 25.000 fps
Bits/(Pixel*Frame) : 0.027
Stream size : 77.0 MiB (73%)
Audio
Format : MPEG Audio
Format version : Version 1
Format profile : Layer 3
Duration : 26mn 55s
Bit rate mode : Constant
Bit rate : 96.0 Kbps
Channel(s) : 2 channels
Sampling rate : 44.1 KHz
Resolution : 16 bits
Stream size : 18.5 MiB (18%)


RE: FLVn??? - h3rm35 - 07-01-2010

can you give the link to a .tor?


RE: FLVn??? - Dunamis - 07-01-2010

Yea, sorry, still having trouble. Can't even convert them due to the said problem I think. It seems to stay almost the same when converted to XviD (took ages too).

"Europian Union Corruption (2009)" - http://concen.org/tracker/torrents-details.php?id=17693

That's the one with the stats I posted above, just correctly titled it, that's all.


RE: FLVn??? - h3rm35 - 07-01-2010

edit: answered my own question.


RE: FLVn??? - Dunamis - 07-02-2010

Ha ha, seems better now. I had an unknown problem with on board graphics it seems. Sorry to have been a pain, cheers for at least helping me rule out software issues guys.


RE: FLVn??? - expt - 07-14-2010

It is often routinely set to 1 by the sender and routinely ignored by the recipient.It's used to when user with real player can easily download the videos.But our client don't need the down load.How can prevent the download option when user with real player.


RE: FLVn??? - --- - 07-14-2010

make a move potential spamvillain


RE: FLVn??? - h3rm35 - 07-14-2010

Definitely seems like it speaks bot... the other post about a hard case for an ipod was a total non-sequiter too...


RE: FLVn??? - Dunamis - 12-07-2010

(12-07-2010, 10:44 AM)Belly Wrote: I think you download the latest version of Vlc. And also install the quick time software in your PC. Then u play song without any problem. Hope you'll like my suggestion. Smile

I think you may be a little confused Smile

I posted back in July, the following (from above)

Dunamis Wrote:Ha ha, seems better now. I had an unknown problem with on board graphics it seems. Sorry to have been a pain, cheers for at least helping me rule out software issues guys.

Also, it was a video file, rather than music Big Grin


RE: FLVn??? - vess - 05-31-2011

thanks for information